Дискография | Владимир Пресняков


Содержание:
  • Популярное в категории - Lossless / Дискографии (Поп музыка)
  • Владимир Пресняков - Дискография [1993-2011, Поп, FLAC]
  • Владимир Пресняков - Дискография [1989-2009, Pop, MP3]
  • Владимир Пресняков - Назад в будущее [2005, Rock, TVRip]
  • Пресняков vs. Malerija [2009, Рорmusic,MP3]
  • Никита Пресняков. Вычислить путь звезды (Евгений Похоменков) [2015, документальный, биография, SATRip]
  • Владимир Асмолов - Дискография [1986 - 2008, Шансон, FLAC]
  • Владимир Воронов - Дискография [2004-2008, Шансон,Военная песня, MP3]
  • Пресняков А.Е. - Лекции по русской истории. Киевская Русь [2007, Историческая книга. Аудиокнига]
  • Владимир Кузьмин 1982 - 2007 ,оф. дискография (32 альбома) [1982-2007, рок]
  • Владимир (Скляренко Семён) [2012, Исторический роман, аудиокнига, MP3, 96kbps, Мичков Василий]
  • Владимир Высоцкий (полное собрание песен)
  • Князь Владимир (Юрий Кулаков) [2004, мультфильм, драма, история, DVD5]
  • Владимир Пресняков-младший. Временно доступен


  • Популярное в категории - Lossless / Дискографии (Поп музыка)

    10
    июн
    2015

    Владимир Пресняков - Дискография [1993-2011, Поп, FLAC]

    Формат:FLAC, (image + .cue), lossless
    Год выпуска: 1993 - 2011
    Страна: СССР - Россия
    Жанр:Поп
    Продолжительность: 09:20:46
    Описание:

    1993 Best of hits - Стюардесса по имени... 01


    1. Стюардесса по имени Жанна 04:16]
    2. Странник 04:27
    3. Сынок 04:23
    4. Ночкой тёмной 04:11
    5. Христос 02:50
    6. Я буду помнить 05:22
    7. Курочка Ряба 03:09
    8. Кто сказал? 04:34
    9. Бабушка 04:41
    10. Ночной звонок 05:26
    11. Туман 05:11
    12. Белый снег 04:30
    13. Зубраган 05:14
    14. Ты скажи 05:41
    15. Если нет тебя со мной 04:22
    16. Недотрога 04:41

    EAC

    Exact Audio Copy V1.0 beta 3 from 29. August 2011

    Отчёт EAC об извлечении, выполненном 7. июня 2015, 17:36

    Владимир Пресняков / Best of Hits. Стюардесса по имени...

    Дисковод: ASUS DRW-24F1ST a Adapter: 0 ID: 0

    Режим чтения : Скоростной

    Коррекция смещения при чтении : 6
    Способность читать области Lead-in и Lead-out : Нет
    Заполнение пропущенных сэмплов тишиной : Да
    Удаление блоков с тишиной в начале и конце : Нет
    При вычислениях CRC использовались нулевые сэмплы : Да
    Интерфейс : Встроенный Win32-интерфейс для Win NT/2000

    Выходной формат : Пользовательский кодировщик
    Выбранный битрейт : 768 kBit/s
    Качество : Высокий
    Добавление ID3-тега : Нет
    Утилита сжатия : C:Program Files (x86)Exact Audio CopyFLACFLAC.EXE
    Дополнительные параметры : -V -8 -T "Date=%year%" -T "Genre=%genre%" %source%

    TOC извлечённого CD

    Трек | Старт | Длительность | Начальный сектор | Конечный сектор
    ---------------------------------------------------------------------
    1 | 0:00.58 | 4:14.47 | 58 | 19154
    2 | 4:15.30 | 4:25.43 | 19155 | 39072
    3 | 8:40.73 | 4:21.62 | 39073 | 58709
    4 | 13:02.60 | 4:08.73 | 58710 | 77382
    5 | 17:11.58 | 2:48.07 | 77383 | 89989
    6 | 19:59.65 | 5:20.70 | 89990 | 114059
    7 | 25:20.60 | 3:07.23 | 114060 | 128107
    8 | 28:28.08 | 4:32.20 | 128108 | 148527
    9 | 33:00.28 | 4:39.65 | 148528 | 169517
    10 | 37:40.18 | 5:24.15 | 169518 | 193832
    11 | 43:04.33 | 5:09.60 | 193833 | 217067
    12 | 48:14.18 | 4:27.57 | 217068 | 237149
    13 | 52:42.00 | 5:12.38 | 237150 | 260587
    14 | 57:54.38 | 5:39.12 | 260588 | 286024
    15 | 63:33.50 | 4:20.05 | 286025 | 305529
    16 | 67:53.55 | 4:41.48 | 305530 | 326652

    Характеристики диапазона извлечения и сообщения об ошибках

    Выбранный диапазон

    Имя файла C:UsersshuraviMusicВладимир Пресняков1993 Best of Hits. Стюардесса по имениВладимир Пресняков - Best of Hits. Стюардесса по имени....wav

    Пиковый уровень 100.0 %
    Скорость извлечения 11.3 X
    CRC теста E7574A24
    CRC копии E7574A24
    Копирование... OK

    Ошибок не произошло

    AccurateRip: сводка

    Трек 1 извлечено точно (достоверность 2) [6A71A5ED] (AR v2)
    Трек 2 извлечено точно (достоверность 2) [694C90D7] (AR v2)
    Трек 3 извлечено точно (достоверность 2) [FE6694BA] (AR v2)
    Трек 4 извлечено точно (достоверность 2) [F4546D77] (AR v2)
    Трек 5 извлечено точно (достоверность 2) [9BD329A8] (AR v2)
    Трек 6 извлечено точно (достоверность 2) [C8A97409] (AR v2)
    Трек 7 извлечено точно (достоверность 2) (AR v2)
    Трек 8 извлечено точно (достоверность 2) (AR v2)
    Трек 9 извлечено точно (достоверность 2) [CD9E986F] (AR v2)
    Трек 10 извлечено точно (достоверность 2) [09F13B45] (AR v2)
    Трек 11 извлечено точно (достоверность 2) [9C42ABF1] (AR v2)
    Трек 12 извлечено точно (достоверность 2) [98397A6A] (AR v2)
    Трек 13 извлечено точно (достоверность 2) [CCF5975B] (AR v2)
    Трек 14 извлечено точно (достоверность 2) [4FECE5AD] (AR v2)
    Трек 15 извлечено точно (достоверность 2) [FCF8959A] (AR v2)
    Трек 16 извлечено точно (достоверность 2) [3B7B60E8] (AR v2)

    Все треки извлечены точно

    Конец отчёта



    1994 Замок из дождя 00


    1. День, в который ты ушла 5:34
    2. Арбат 4:50
    3. Птица 4:53
    4. Романс 3:36
    5. Я скажу тебе 4:11
    6. Замок из дождя 5:30
    7. История одной любви 1:33
    8. Маша 5:36
    9. Эти двое 4:36
    10. Жизнь без твоей любви 4:33
    11. Не болтай во сне 4:09
    12. Падший ангел 4:46

    EAC

    Exact Audio Copy V1.0 beta 3 from 29. August 2011

    Отчёт EAC об извлечении, выполненном 7. июня 2015, 18:00

    Владимир Пресняков / Замок из дождя

    Дисковод: ASUS DRW-24F1ST a Adapter: 0 ID: 0

    Режим чтения : Скоростной

    Коррекция смещения при чтении : 6
    Способность читать области Lead-in и Lead-out : Нет
    Заполнение пропущенных сэмплов тишиной : Да
    Удаление блоков с тишиной в начале и конце : Нет
    При вычислениях CRC использовались нулевые сэмплы : Да
    Интерфейс : Встроенный Win32-интерфейс для Win NT/2000

    Выходной формат : Пользовательский кодировщик
    Выбранный битрейт : 768 kBit/s
    Качество : Высокий
    Добавление ID3-тега : Нет
    Утилита сжатия : C:Program Files (x86)Exact Audio CopyFLACFLAC.EXE
    Дополнительные параметры : -V -8 -T "Date=%year%" -T "Genre=%genre%" %source%

    TOC извлечённого CD

    Трек | Старт | Длительность | Начальный сектор | Конечный сектор
    ---------------------------------------------------------------------
    1 | 0:00.00 | 5:33.67 | 0 | 25041
    2 | 5:33.67 | 4:49.43 | 25042 | 46759
    3 | 10:23.35 | 4:52.57 | 46760 | 68716
    4 | 15:16.17 | 3:36.33 | 68717 | 84949
    5 | 18:52.50 | 4:11.25 | 84950 | 103799
    6 | 23:04.00 | 5:30.15 | 103800 | 128564
    7 | 28:34.15 | 1:32.65 | 128565 | 135529
    8 | 30:07.05 | 5:36.25 | 135530 | 160754
    9 | 35:43.30 | 4:35.62 | 160755 | 181441
    10 | 40:19.17 | 4:32.63 | 181442 | 201904
    11 | 44:52.05 | 4:08.67 | 201905 | 220571
    12 | 49:00.72 | 4:46.03 | 220572 | 242024

    Характеристики диапазона извлечения и сообщения об ошибках

    Выбранный диапазон

    Имя файла C:UsersshuraviMusicВладимир Пресняков1994 Замок из дождяВладимир Пресняков - Замок из дождя.wav

    Пиковый уровень 82.1 %
    Скорость извлечения 10.4 X
    CRC теста 82BA9507
    CRC копии 82BA9507
    Копирование... OK

    Ошибок не произошло

    AccurateRip: сводка

    Трек 1 извлечено точно (достоверность 2) [1C89D793] (AR v2)
    Трек 2 извлечено точно (достоверность 2) [537AE040] (AR v2)
    Трек 3 извлечено точно (достоверность 2) [93C5143B] (AR v2)
    Трек 4 извлечено точно (достоверность 2) [BDD69AB1] (AR v2)
    Трек 5 извлечено точно (достоверность 2) [57B69E99] (AR v2)
    Трек 6 извлечено точно (достоверность 2) [FE96DB76] (AR v2)
    Трек 7 извлечено точно (достоверность 2) [6E3741B9] (AR v2)
    Трек 8 извлечено точно (достоверность 2) [26DDB10F] (AR v2)
    Трек 9 извлечено точно (достоверность 2) [0D49DD68] (AR v2)
    Трек 10 извлечено точно (достоверность 2) [03603743] (AR v2)
    Трек 11 извлечено точно (достоверность 2) [61036359] (AR v2)
    Трек 12 извлечено точно (достоверность 2) [6A7B13CC] (AR v2)

    Все треки извлечены точно

    Конец отчёта



    1996 Зурбаган 00


    1. Зурбаган 05:13
    2. Острова 04:00
    3. Рыжий Кот 03:31
    4. Чарли Чаплин 03:53
    5. Разноцветный Город 05:06
    6. Ж.З.Л. 03:48
    7. Джинн 03:59
    8. Дождёмся Завтрашнего Дня 05:20
    9. Папа, Ты Сам Был Таким 04:39
    10. Змея 03:35
    11. По Кругу 03:06

    EAC

    Exact Audio Copy V1.0 beta 3 from 29. August 2011

    Отчёт EAC об извлечении, выполненном 7. июня 2015, 18:55

    Владимир Пресняков / Зурбаган

    Дисковод: ASUS DRW-24F1ST a Adapter: 0 ID: 0

    Режим чтения : Скоростной

    Коррекция смещения при чтении : 6
    Способность читать области Lead-in и Lead-out : Нет
    Заполнение пропущенных сэмплов тишиной : Да
    Удаление блоков с тишиной в начале и конце : Нет
    При вычислениях CRC использовались нулевые сэмплы : Да
    Интерфейс : Встроенный Win32-интерфейс для Win NT/2000

    Выходной формат : Пользовательский кодировщик
    Выбранный битрейт : 768 kBit/s
    Качество : Высокий
    Добавление ID3-тега : Нет
    Утилита сжатия : C:Program Files (x86)Exact Audio CopyFLACFLAC.EXE
    Дополнительные параметры : -V -8 -T "Date=%year%" -T "Genre=%genre%" %source%

    TOC извлечённого CD

    Трек | Старт | Длительность | Начальный сектор | Конечный сектор
    ---------------------------------------------------------------------
    1 | 0:00.10 | 5:13.45 | 10 | 23529
    2 | 5:13.55 | 4:04.50 | 23530 | 41879
    3 | 9:18.30 | 3:31.20 | 41880 | 57724
    4 | 12:49.50 | 3:53.62 | 57725 | 75261
    5 | 16:43.37 | 5:06.63 | 75262 | 98274
    6 | 21:50.25 | 3:48.35 | 98275 | 115409
    7 | 25:38.60 | 3:59.62 | 115410 | 133396
    8 | 29:38.47 | 5:20.10 | 133397 | 157406
    9 | 34:58.57 | 4:39.05 | 157407 | 178336
    10 | 39:37.62 | 3:35.50 | 178337 | 194511
    11 | 43:13.37 | 3:06.50 | 194512 | 208511

    Характеристики диапазона извлечения и сообщения об ошибках

    Выбранный диапазон

    Имя файла C:UsersshuraviMusicВладимир Пресняков1996 ЗурбаганВладимир Пресняков - Зурбаган.wav

    Пиковый уровень 98.8 %
    Скорость извлечения 10.0 X
    CRC теста 84D9B127
    CRC копии 84D9B127
    Копирование... OK

    Ошибок не произошло

    AccurateRip: сводка

    Трек 1 извлечено точно (достоверность 5) [C0E7AD05] (AR v2)
    Трек 2 извлечено точно (достоверность 5) [4E5ED524] (AR v2)
    Трек 3 извлечено точно (достоверность 5) [D062CF47] (AR v2)
    Трек 4 извлечено точно (достоверность 5) [2ED3070A] (AR v2)
    Трек 5 извлечено точно (достоверность 5) [280FFB0B] (AR v2)
    Трек 6 извлечено точно (достоверность 5) [76E0B447] (AR v2)
    Трек 7 извлечено точно (достоверность 5) [20E55CA5] (AR v2)
    Трек 8 извлечено точно (достоверность 5) [982C56DA] (AR v2)
    Трек 9 извлечено точно (достоверность 5) [75B630B2] (AR v2)
    Трек 10 извлечено точно (достоверность 5) [C8FF989A] (AR v2)
    Трек 11 извлечено точно (достоверность 4) [FDADE6C8] (AR v2)

    Все треки извлечены точно

    Конец отчёта



    1996 Странник 00


    1. Странник 4:26
    2. Незаконнорожденный сын 4:22
    3. Мой дом 4:21
    4. Вина 4:54
    5. Если нет тебя со мной 4:22
    6. Ночной звонок 5:22
    7. Белый снег 5:36
    8. Бабушка 4:41
    9. Ты скажи 5:39
    10.Христос 2:51
    11.Туман 5:09

    EAC

    Exact Audio Copy V1.0 beta 3 from 29. August 2011

    Отчёт EAC об извлечении, выполненном 7. июня 2015, 20:01

    Владимир Пресняков / Странник

    Дисковод: ASUS DRW-24F1ST a Adapter: 0 ID: 0

    Режим чтения : Скоростной

    Коррекция смещения при чтении : 6
    Способность читать области Lead-in и Lead-out : Нет
    Заполнение пропущенных сэмплов тишиной : Да
    Удаление блоков с тишиной в начале и конце : Нет
    При вычислениях CRC использовались нулевые сэмплы : Да
    Интерфейс : Встроенный Win32-интерфейс для Win NT/2000

    Выходной формат : Пользовательский кодировщик
    Выбранный битрейт : 768 kBit/s
    Качество : Высокий
    Добавление ID3-тега : Нет
    Утилита сжатия : C:Program Files (x86)Exact Audio CopyFLACFLAC.EXE
    Дополнительные параметры : -V -8 -T "Date=%year%" -T "Genre=%genre%" %source%

    TOC извлечённого CD

    Трек | Старт | Длительность | Начальный сектор | Конечный сектор
    ---------------------------------------------------------------------
    1 | 0:00.10 | 4:25.50 | 10 | 19934
    2 | 4:25.60 | 4:22.37 | 19935 | 39621
    3 | 8:48.22 | 4:21.00 | 39622 | 59196
    4 | 13:09.22 | 4:53.50 | 59197 | 81221
    5 | 18:02.72 | 4:21.53 | 81222 | 100849
    6 | 22:24.50 | 5:21.42 | 100850 | 124966
    7 | 27:46.17 | 5:36.15 | 124967 | 150181
    8 | 33:22.32 | 4:40.38 | 150182 | 171219
    9 | 38:02.70 | 5:38.65 | 171220 | 196634
    10 | 43:41.60 | 2:50.57 | 196635 | 209441
    11 | 46:32.42 | 5:06.08 | 209442 | 232399

    Характеристики диапазона извлечения и сообщения об ошибках

    Выбранный диапазон

    Имя файла C:UsersshuraviMusicВладимир Пресняков1996 СтранникВладимир Пресняков - Странник.wav

    Пиковый уровень 98.8 %
    Скорость извлечения 7.9 X
    CRC теста BA27A420
    CRC копии BA27A420
    Копирование... OK

    Ошибок не произошло

    AccurateRip: сводка

    Трек 1 извлечено точно (достоверность 1) [98884AF6] (AR v2)
    Трек 2 извлечено точно (достоверность 1) [EA8A3118] (AR v2)
    Трек 3 извлечено точно (достоверность 1) [85DC5B67] (AR v2)
    Трек 4 извлечено точно (достоверность 1) [527172DE] (AR v2)
    Трек 5 извлечено точно (достоверность 1) [C89B34A3] (AR v2)
    Трек 6 извлечено точно (достоверность 1) [592C401B] (AR v2)
    Трек 7 извлечено точно (достоверность 1) [C10768CD] (AR v2)
    Трек 8 извлечено точно (достоверность 1) [A89FDADE] (AR v2)
    Трек 9 извлечено точно (достоверность 1) [D01D3739] (AR v2)
    Трек 10 извлечено точно (достоверность 1) [5401D323] (AR v2)
    Трек 11 извлечено точно (достоверность 1) [12946EA8] (AR v2)

    Все треки извлечены точно

    Конец отчёта



    1996 Жанка 00


    1. Реггей 4:11
    2. Стюардесса 4:03
    3. На крылечке вдвоём 2:54
    4. Коротышка 4:16
    5. Курочка Ряба 3:08
    6. Кто сказал? 4:29
    7. Недотрога 4:46
    8. Дай мне слово 4:39
    9. Роковый концерт 4:01
    10. Факт 3:54
    11. Я буду помнить 5:34

    EAC

    Exact Audio Copy V1.0 beta 3 from 29. August 2011

    Отчёт EAC об извлечении, выполненном 7. июня 2015, 18:31

    Владимир Пресняков / Жанка

    Дисковод: ASUS DRW-24F1ST a Adapter: 0 ID: 0

    Режим чтения : Скоростной

    Коррекция смещения при чтении : 6
    Способность читать области Lead-in и Lead-out : Нет
    Заполнение пропущенных сэмплов тишиной : Да
    Удаление блоков с тишиной в начале и конце : Нет
    При вычислениях CRC использовались нулевые сэмплы : Да
    Интерфейс : Встроенный Win32-интерфейс для Win NT/2000

    Выходной формат : Пользовательский кодировщик
    Выбранный битрейт : 768 kBit/s
    Качество : Высокий
    Добавление ID3-тега : Нет
    Утилита сжатия : C:Program Files (x86)Exact Audio CopyFLACFLAC.EXE
    Дополнительные параметры : -V -8 -T "Date=%year%" -T "Genre=%genre%" %source%

    TOC извлечённого CD

    Трек | Старт | Длительность | Начальный сектор | Конечный сектор
    ---------------------------------------------------------------------
    1 | 0:00.10 | 4:11.00 | 10 | 18834
    2 | 4:11.10 | 4:03.37 | 18835 | 37096
    3 | 8:14.47 | 2:53.40 | 37097 | 50111
    4 | 11:08.12 | 4:16.18 | 50112 | 69329
    5 | 15:24.30 | 3:07.62 | 69330 | 83416
    6 | 18:32.17 | 4:29.13 | 83417 | 103604
    7 | 23:01.30 | 4:46.00 | 103605 | 125054
    8 | 27:47.30 | 4:38.50 | 125055 | 145954
    9 | 32:26.05 | 4:01.35 | 145955 | 164064
    10 | 36:27.40 | 3:54.00 | 164065 | 181614
    11 | 40:21.40 | 5:34.17 | 181615 | 206681

    Характеристики диапазона извлечения и сообщения об ошибках

    Выбранный диапазон

    Имя файла C:UsersshuraviMusicВладимир Пресняков1996 ЖанкаВладимир Пресняков - Жанка.wav

    Пиковый уровень 98.8 %
    Скорость извлечения 10.0 X
    CRC теста 5E430EF5
    CRC копии 5E430EF5
    Копирование... OK

    Ошибок не произошло

    AccurateRip: сводка

    Трек 1 извлечено точно (достоверность 1) (AR v2)
    Трек 2 извлечено точно (достоверность 1) [3E4ACCE5] (AR v2)
    Трек 3 извлечено точно (достоверность 1) [65A444EB] (AR v2)
    Трек 4 извлечено точно (достоверность 1) [C1F7727B] (AR v2)
    Трек 5 извлечено точно (достоверность 1) [49FBCE24] (AR v2)
    Трек 6 извлечено точно (достоверность 1) [23DE0459] (AR v2)
    Трек 7 извлечено точно (достоверность 1) [50B8536D] (AR v2)
    Трек 8 извлечено точно (достоверность 1) [3AED64A3] (AR v2)
    Трек 9 извлечено точно (достоверность 1) [29E94705] (AR v2)
    Трек 10 извлечено точно (достоверность 1) [2C7E4733] (AR v2)
    Трек 11 извлечено точно (достоверность 1) [FB79E037] (AR v2)

    Все треки извлечены точно

    Конец отчёта



    1996 Слюньки 00


    1. Ла - Ла - Лай 4:54
    2. Обмани Меня 5:28
    3. Чёрное Море 4:48
    4. Девочка 4:02
    5. Где Ты, Где Ты... 5:27
    6. Дуська 3:24
    7. Трамвай 4:42
    8. Через Тысячу Лет 6:26
    9. Лёд, Лёд, Лёд 3:37
    10. Туман 6:03
    11. Не Судьба 5:49
    12. Вампир 4:03

    EAC

    Exact Audio Copy V1.0 beta 3 from 29. August 2011

    Отчёт EAC об извлечении, выполненном 7. июня 2015, 21:46

    Владимир Пресняков / Слюньки

    Дисковод: ASUS DRW-24F1ST a Adapter: 0 ID: 0

    Режим чтения : Скоростной

    Коррекция смещения при чтении : 6
    Способность читать области Lead-in и Lead-out : Нет
    Заполнение пропущенных сэмплов тишиной : Да
    Удаление блоков с тишиной в начале и конце : Нет
    При вычислениях CRC использовались нулевые сэмплы : Да
    Интерфейс : Встроенный Win32-интерфейс для Win NT/2000

    Выходной формат : Пользовательский кодировщик
    Выбранный битрейт : 768 kBit/s
    Качество : Высокий
    Добавление ID3-тега : Нет
    Утилита сжатия : C:Program Files (x86)Exact Audio CopyFLACFLAC.EXE
    Дополнительные параметры : -V -8 -T "Date=%year%" -T "Genre=%genre%" %source%

    TOC извлечённого CD

    Трек | Старт | Длительность | Начальный сектор | Конечный сектор
    ---------------------------------------------------------------------
    1 | 0:00.10 | 4:54.37 | 10 | 22096
    2 | 4:54.47 | 5:28.48 | 22097 | 46744
    3 | 10:23.20 | 4:48.22 | 46745 | 68366
    4 | 15:11.42 | 4:02.48 | 68367 | 86564
    5 | 19:14.15 | 5:27.00 | 86565 | 111089
    6 | 24:41.15 | 3:24.47 | 111090 | 126436
    7 | 28:05.62 | 4:42.38 | 126437 | 147624
    8 | 32:48.25 | 6:26.70 | 147625 | 176644
    9 | 39:15.20 | 3:37.10 | 176645 | 192929
    10 | 42:52.30 | 6:03.05 | 192930 | 220159
    11 | 48:55.35 | 5:49.10 | 220160 | 246344
    12 | 54:44.45 | 4:03.65 | 246345 | 264634

    Характеристики диапазона извлечения и сообщения об ошибках

    Выбранный диапазон

    Имя файла C:UsersshuraviMusicВладимир Пресняков1996 СлюнькиВладимир Пресняков - Слюньки.wav

    Пиковый уровень 98.8 %
    Скорость извлечения 7.9 X
    CRC теста C2C1EA58
    CRC копии C2C1EA58
    Копирование... OK

    Ошибок не произошло

    AccurateRip: сводка

    Трек 1 извлечено точно (достоверность 3) [1DEC2085] (AR v2)
    Трек 2 извлечено точно (достоверность 3) [BF4AB4D9] (AR v2)
    Трек 3 извлечено точно (достоверность 3) [EB94A78C] (AR v2)
    Трек 4 извлечено точно (достоверность 3) [BC549955] (AR v2)
    Трек 5 извлечено точно (достоверность 3) [760D98D0] (AR v2)
    Трек 6 извлечено точно (достоверность 3) [6DA7B793] (AR v2)
    Трек 7 извлечено точно (достоверность 3) [83960260] (AR v2)
    Трек 8 извлечено точно (достоверность 3) [5131B4A5] (AR v2)
    Трек 9 извлечено точно (достоверность 3) [9A097039] (AR v2)
    Трек 10 извлечено точно (достоверность 3) [FC3347B1] (AR v2)
    Трек 11 извлечено точно (достоверность 3) [0AF8539E] (AR v2)
    Трек 12 извлечено точно (достоверность 2) [0DFF6155] (AR v2)

    Все треки извлечены точно

    Конец отчёта



    2001 Открытая дверь 01


    1. Зурбаган 5:13
    2. Острова 4:04
    3. Недотрога 4:46
    4. Бабушка 4:40
    5. Ночной звонок 5:21
    6. Реггей 4:10
    7. Странник 4:25
    8. Стюардесса 4:03
    9. Незаконнорожденный сын 4:22
    10. Белый снег 5:36
    11. Туман 5:08
    12. Замок из дождя 5:32
    13. Ты скажи 5:38
    14. Девчонка 6:15
    15. Я буду помнить 5:34

    EAC

    Exact Audio Copy V1.0 beta 3 from 29. August 2011

    Отчёт EAC об извлечении, выполненном 7. июня 2015, 22:56

    Владимир Пресняков / Открытая дверь

    Дисковод: ASUS DRW-24F1ST a Adapter: 0 ID: 0

    Режим чтения : Скоростной

    Коррекция смещения при чтении : 6
    Способность читать области Lead-in и Lead-out : Нет
    Заполнение пропущенных сэмплов тишиной : Да
    Удаление блоков с тишиной в начале и конце : Нет
    При вычислениях CRC использовались нулевые сэмплы : Да
    Интерфейс : Встроенный Win32-интерфейс для Win NT/2000

    Выходной формат : Пользовательский кодировщик
    Выбранный битрейт : 768 kBit/s
    Качество : Высокий
    Добавление ID3-тега : Нет
    Утилита сжатия : C:Program Files (x86)Exact Audio CopyFLACFLAC.EXE
    Дополнительные параметры : -V -8 -T "Date=%year%" -T "Genre=%genre%" %source%

    TOC извлечённого CD

    Трек | Старт | Длительность | Начальный сектор | Конечный сектор
    ---------------------------------------------------------------------
    1 | 0:00.00 | 5:12.65 | 0 | 23464
    2 | 5:12.65 | 4:04.13 | 23465 | 41777
    3 | 9:17.03 | 4:45.39 | 41778 | 63191
    4 | 14:02.42 | 4:39.72 | 63192 | 84188
    5 | 18:42.39 | 5:21.00 | 84189 | 108263
    6 | 24:03.39 | 4:09.72 | 108264 | 127010
    7 | 28:13.36 | 4:24.38 | 127011 | 146848
    8 | 32:37.74 | 4:03.03 | 146849 | 165076
    9 | 36:41.02 | 4:22.04 | 165077 | 184730
    10 | 41:03.06 | 5:35.48 | 184731 | 209903
    11 | 46:38.54 | 5:08.13 | 209904 | 233016
    12 | 51:46.67 | 5:32.18 | 233017 | 257934
    13 | 57:19.10 | 5:38.19 | 257935 | 283303
    14 | 62:57.29 | 6:15.27 | 283304 | 311455
    15 | 69:12.56 | 5:34.22 | 311456 | 336527

    Характеристики диапазона извлечения и сообщения об ошибках

    Выбранный диапазон

    Имя файла C:UsersshuraviMusicВладимир Пресняков2001 Открытая дверьВладимир Пресняков - Открытая дверь.wav

    Пиковый уровень 98.8 %
    Скорость извлечения 29.8 X
    CRC теста B33891AC
    CRC копии B33891AC
    Копирование... OK

    Ошибок не произошло

    AccurateRip: сводка

    Трек 1 извлечено точно (достоверность 2) [A48CE2C5] (AR v2)
    Трек 2 извлечено точно (достоверность 2) [1BDC895D] (AR v2)
    Трек 3 извлечено точно (достоверность 2) [35FBEE52] (AR v2)
    Трек 4 извлечено точно (достоверность 2) [CCDA2459] (AR v2)
    Трек 5 извлечено точно (достоверность 2) [815E133D] (AR v2)
    Трек 6 извлечено точно (достоверность 2) [67B99EFF] (AR v2)
    Трек 7 извлечено точно (достоверность 3) [E5826799] (AR v2)
    Трек 8 извлечено точно (достоверность 3) [0D9F1147] (AR v2)
    Трек 9 извлечено точно (достоверность 2) [C9FAE18A] (AR v2)
    Трек 10 извлечено точно (достоверность 3) [D56959BE] (AR v2)
    Трек 11 извлечено точно (достоверность 2) [EF59C2E7] (AR v2)
    Трек 12 извлечено точно (достоверность 2) [D667F18D] (AR v2)
    Трек 13 извлечено точно (достоверность 3) [3DCA5A1F] (AR v2)
    Трек 14 извлечено точно (достоверность 2) [50701648] (AR v2)
    Трек 15 извлечено точно (достоверность 2) [E564D04E] (AR v2)

    Все треки извлечены точно

    Конец отчёта



    2002 Любовь на audio 01


    1. Любовь на видео 4:40
    2. Окна 5:43
    3. Девчонки-куртизанки 3:48
    4. Девчонка моя 6:14
    5. Серебряная река 4:21
    6. Покинь меня 5:36
    7. Любовь 6:12
    8. Обманщица Луна 3:12
    9. Романс 3:29
    10. Баллада о влюблённых 4:46
    11. Случайный вальс 4:21
    12. Бублички 5:47
    13. Жанка (Remix) 6:12
    14. Пресняков Владимир feat. Не замужем - Острова 3:24

    EAC

    Exact Audio Copy V1.0 beta 3 from 29. August 2011

    Отчёт EAC об извлечении, выполненном 8. июня 2015, 13:00

    Владимир Пресняков / Любовь на AUDIO

    Дисковод: ASUS DRW-24F1ST a Adapter: 0 ID: 0

    Режим чтения : Скоростной

    Коррекция смещения при чтении : 6
    Способность читать области Lead-in и Lead-out : Нет
    Заполнение пропущенных сэмплов тишиной : Да
    Удаление блоков с тишиной в начале и конце : Нет
    При вычислениях CRC использовались нулевые сэмплы : Да
    Интерфейс : Встроенный Win32-интерфейс для Win NT/2000

    Выходной формат : Пользовательский кодировщик
    Выбранный битрейт : 768 kBit/s
    Качество : Высокий
    Добавление ID3-тега : Нет
    Утилита сжатия : C:Program Files (x86)Exact Audio CopyFLACFLAC.EXE
    Дополнительные параметры : -V -8 -T "Date=%year%" -T "Genre=%genre%" %source%

    TOC извлечённого CD

    Трек | Старт | Длительность | Начальный сектор | Конечный сектор
    ---------------------------------------------------------------------
    1 | 0:00.00 | 4:39.59 | 0 | 20983
    2 | 4:39.59 | 5:42.48 | 20984 | 46681
    3 | 10:22.32 | 3:47.71 | 46682 | 63777
    4 | 14:10.28 | 6:14.06 | 63778 | 91833
    5 | 20:24.34 | 4:20.41 | 91834 | 111374
    6 | 24:45.00 | 5:36.34 | 111375 | 136608
    7 | 30:21.34 | 6:12.04 | 136609 | 164512
    8 | 36:33.38 | 3:11.53 | 164513 | 178890
    9 | 39:45.16 | 3:29.28 | 178891 | 194593
    10 | 43:14.44 | 4:45.51 | 194594 | 216019
    11 | 48:00.20 | 4:21.09 | 216020 | 235603
    12 | 52:21.29 | 5:47.32 | 235604 | 261660
    13 | 58:08.61 | 6:11.46 | 261661 | 289531
    14 | 64:20.32 | 3:24.32 | 289532 | 304863

    Характеристики диапазона извлечения и сообщения об ошибках

    Выбранный диапазон

    Имя файла C:UsersshuraviMusicВладимир Пресняков - Любовь на AUDIO.wav

    Пиковый уровень 100.0 %
    Скорость извлечения 11.0 X
    CRC теста ED666BF5
    CRC копии ED666BF5
    Копирование... OK

    Ошибок не произошло

    AccurateRip: сводка

    Трек 1 отсутствует в базе данных
    Трек 2 отсутствует в базе данных
    Трек 3 отсутствует в базе данных
    Трек 4 отсутствует в базе данных
    Трек 5 отсутствует в базе данных
    Трек 6 отсутствует в базе данных
    Трек 7 отсутствует в базе данных
    Трек 8 отсутствует в базе данных
    Трек 9 отсутствует в базе данных
    Трек 10 отсутствует в базе данных
    Трек 11 отсутствует в базе данных
    Трек 12 отсутствует в базе данных
    Трек 13 отсутствует в базе данных
    Трек 14 отсутствует в базе данных

    Ни одного трека нет в базе AccurateRip

    Конец отчёта



    2011 Нереальная любовь 01


    1. Ты сделана из огня 4:39
    2. Колыбельная 3:48
    3. Медведи 3:56
    4. Навсегда 3:44
    5. Нереальная любовь 3:45
    6. Моя любовь 4:00
    7. Золотая карусель (Белые цветы) 4:01
    8. Пресняков Владимир feat. Агутин Леонид - Аэропорты 4:44
    9. Пресняков Владимир, Агутин Леонид, Варум Анжелика, Подольская Наталья - Быть частью твоего 4:05
    10. Пресняков Владимир feat. Подольская Наталья - Ты не со мной 3:06
    11. Зурбаган 5:38
    12. Лола 4:19
    13. Пресняков Владимир feat. Подольская Наталья - Стена 4:54
    14. На мосту 4:23
    15. Перелётная птица 3:17
    16. Дождь 3:44
    17. Недотрога 4:29
    18. Май 4:42
    19. Схожу с ума 3:55

    EAC

    Exact Audio Copy V1.0 beta 3 from 29. August 2011

    Отчёт EAC об извлечении, выполненном 8. июня 2015, 0:20

    Владимир Пресняков / Нереальная любовь

    Дисковод: ASUS DRW-24F1ST a Adapter: 0 ID: 0

    Режим чтения : Скоростной

    Коррекция смещения при чтении : 6
    Способность читать области Lead-in и Lead-out : Нет
    Заполнение пропущенных сэмплов тишиной : Да
    Удаление блоков с тишиной в начале и конце : Нет
    При вычислениях CRC использовались нулевые сэмплы : Да
    Интерфейс : Встроенный Win32-интерфейс для Win NT/2000

    Выходной формат : Пользовательский кодировщик
    Выбранный битрейт : 768 kBit/s
    Качество : Высокий
    Добавление ID3-тега : Нет
    Утилита сжатия : C:Program Files (x86)Exact Audio CopyFLACFLAC.EXE
    Дополнительные параметры : -V -8 -T "Date=%year%" -T "Genre=%genre%" %source%

    TOC извлечённого CD

    Трек | Старт | Длительность | Начальный сектор | Конечный сектор
    ---------------------------------------------------------------------
    1 | 0:00.00 | 4:39.16 | 0 | 20940
    2 | 4:39.16 | 3:47.67 | 20941 | 38032
    3 | 8:27.08 | 3:56.30 | 38033 | 55762
    4 | 12:23.38 | 3:44.06 | 55763 | 72568
    5 | 16:07.44 | 3:45.34 | 72569 | 89477
    6 | 19:53.03 | 4:00.26 | 89478 | 107503
    7 | 23:53.29 | 4:01.02 | 107504 | 125580
    8 | 27:54.31 | 4:44.34 | 125581 | 146914
    9 | 32:38.65 | 4:04.46 | 146915 | 165260
    10 | 36:43.36 | 3:06.24 | 165261 | 179234
    11 | 39:49.60 | 5:38.37 | 179235 | 204621
    12 | 45:28.22 | 4:19.12 | 204622 | 224058
    13 | 49:47.34 | 4:54.01 | 224059 | 246109
    14 | 54:41.35 | 4:23.00 | 246110 | 265834
    15 | 59:04.35 | 3:16.55 | 265835 | 280589
    16 | 62:21.15 | 3:44.16 | 280590 | 297405
    17 | 66:05.31 | 4:28.55 | 297406 | 317560
    18 | 70:34.11 | 4:42.24 | 317561 | 338734
    19 | 75:16.35 | 3:54.73 | 338735 | 356357

    Характеристики диапазона извлечения и сообщения об ошибках

    Выбранный диапазон

    Имя файла C:UsersshuraviMusicВладимир Пресняков2011 Нереальная любовьВладимир Пресняков - Нереальная любовь.wav

    Пиковый уровень 98.0 %
    Скорость извлечения 30.3 X
    CRC теста 16E5A45B
    CRC копии 16E5A45B
    Копирование... OK

    Ошибок не произошло

    AccurateRip: сводка

    Трек 1 отсутствует в базе данных
    Трек 2 отсутствует в базе данных
    Трек 3 отсутствует в базе данных
    Трек 4 отсутствует в базе данных
    Трек 5 отсутствует в базе данных
    Трек 6 отсутствует в базе данных
    Трек 7 отсутствует в базе данных
    Трек 8 отсутствует в базе данных
    Трек 9 отсутствует в базе данных
    Трек 10 отсутствует в базе данных
    Трек 11 отсутствует в базе данных
    Трек 12 отсутствует в базе данных
    Трек 13 отсутствует в базе данных
    Трек 14 отсутствует в базе данных
    Трек 15 отсутствует в базе данных
    Трек 16 отсутствует в базе данных
    Трек 17 отсутствует в базе данных
    Трек 18 отсутствует в базе данных
    Трек 19 отсутствует в базе данных

    Ни одного трека нет в базе AccurateRip

    Конец отчёта



    Доп. информация:

    Официальный сайт

    12
    сен
    2010

    Владимир Пресняков - Дискография [1989-2009, Pop, MP3]

    Формат: MP3, tracks, 192-320kbps
    Год выпуска: 1989-2009
    Страна: Россия
    Жанр: Pop
    Продолжительность: 12:02:11
    Описание: Папа, ты сам был таким 1989 00 01 - Недотрога 02 - Папа, ты сам был таким 03 - Белый снег 04 - Бабушка 05 - Дай мне слово 06 - Ночной звонок 07 - Туман 08 - Роковый концерт Best Of Hits 1993 01 01 - Стюардесса по имени Жанна 02 - Странник 03 - Сынок 04 - Ночкой темной 05 - Христос 06 - Я буду помнить 07 - Курочка Ряба 08 - Кто сказал 09 - Бабушка 10 - Ночной звонок 11 - Туман 12 - Белый снег 13 - Зурбаган 14 - Ты скажи 15 - Если нет тебя со мной 16 - Недотрога Замок из до ...


    10
    апр
    2011

    Владимир Пресняков - Назад в будущее [2005, Rock, TVRip]

    Формат: TVRip, MPG, MPEG2, MPEG Audio
    Песня: Назад в будущее
    Жанр: Rock
    Продолжительность: 01:19:47
    Год выпуска: 2005
    Страна: Россия
    Видео: 704*576(4:3) PAL MPEG (Video Version 2), ~ 15 Мбит/сек, ~ 25,000 кадр/сек, 0.251 Бит/(Пиксили*Кадры)
    Аудио: 48 КГц, 2 канала(ов), 192 кбит/сек., MPEG Audio
    Дополнительная информация: Треклист 01. 13 лет 02. Мост 03. Замок из дождя 04. Май 05. Девчонка /с Л. Агутиным/ 06. Обмани меня 07. Белый снег /с Ю. Савичевой/ 08. Реггей 09. Чёрное море 10. Странник 11. Зурбаган 12. Незаконнорожденный 13. Стюардесса по имени Жанна ДополнительноКонцерт был записаны ...


    12
    апр
    2009

    Пресняков vs. Malerija [2009, Рорmusic,MP3]

    Формат: MP3, tracks, 320kbps
    Год выпуска: 2009
    Страна: Россия
    Жанр: Рор
    Продолжительность: 00:54:42
    Трэклист: 1. Малерия (Пресняков. Кавалерян. Клевенский. Хмыз) Посмотреть 2. Сделай любовь (Пресняков. Кавалерян. Хмыз) Посмотреть 3. Мост (Пресняков. Кавалерян) 4. Я гуляю по луне (Пресняков. Кавалерян. Клевенский. Хмыз) 5. Тринадцать лет (Пресняков. Кавалерян) 6. Робот (Пресняков. Кавалерян) 7. Девочка тату (Пресняков. Кавалерян. Клевенский. Хмыз) 8. S.O.S (Пресняков. Кавалерян. Клевенский. Хмыз) 9. Не моё (Пресняков. Ленская. Клевенский. Хмыз) 10. Невидимка любовь (Пресняков. Кавалерян. Клеве ...


    20
    апр
    2015

    Никита Пресняков. Вычислить путь звезды (Евгений Похоменков) [2015, документальный, биография, SATRip]

    Перевод: Не требуется, cубтитры: отсутствуют
    Формат: SATRip, AVI, XviD, AC3
    Страна: Россия
    Режиссер: Евгений Похоменков
    Жанр: документальный, биография
    Продолжительность: 01:01:33
    Год выпуска: 2015
    В ролях: Никита Пресняков, Алла Пугачёва, Филипп Киркоров, Владимир Пресняков мл., Владимир Пресняков ст., Кристина Орбакайте
    Описание: Он родился в самой звёздной семье российского шоу-бизнеса, став первым наследником знаменитого творческого семейства. Сейчас имя самого Никиты Преснякова становится настолько популярным, что он вполне может конкурировать с именами своих прославленных родственников ...


    03
    мар
    2012

    Владимир Асмолов - Дискография [1986 - 2008, Шансон, FLAC]

    Формат: FLAC, (image + .cue), lossless
    Год выпуска: 1986 - 2008
    Страна: Россия
    Жанр: Шансон
    Продолжительность: 21:44:49
    Описание: Девочки-венерочки 1986 00 Tреклист: 01. Девочки-Венерочки [5:34] 02. Королева Блеф [3:53] 03. Я тебя узнаю [3:46] 04. Царевна-лягушка [2:37] 05. Ляна [4:11] 06. Гололед [3:59] 07. Горная речка [3:24] 08. Вторая любовь [3:53] 09. Улыбка Чарли [3:01] 10. На то они моря [5:09] 11. Тысяча сердец [3:17] 12. Все может быть [3:30] 13. Вторая любовь (инстр.) [3:59] 14. Девочки-Венерочки (инстр.) [4:28] И грустно и смешно 1987 00 Tреклист: 01. И грустно, и смешно [2:58] 02 ...


    16
    окт
    2011

    Владимир Воронов - Дискография [2004-2008, Шансон,Военная песня, MP3]

    Формат: MP3, tracks, 192-320kbps [VBR]
    Год выпуска: 2004-2008
    Страна: Россия
    Жанр: Шансон, Военная песня
    Продолжительность: 03:25:47
    Описание: 2004 Десантная доля 01 01. Судьба 02. Я далеко 03. Сержант 04. Уходил на войну солдат 05. Слезы дагестанских облаков 06. Ленты армейских дорог 07. Ветра 08. Тишина 09. Матушка-душа 10. Журавли 11. Время решать 12. Уходи 13. С Днем Рождения, братан 14. Ты не думай, не гадай 15. Десантная доля 2004 Под прицелами 00 01. Под прицелами 02. Последний вечер в ВДВ 03. Памяти друга 04. Батя 05. Поход в бездну (памяти экипажа подлодки "Курск") 06. Расскажи мне ...


    24
    сен
    2009

    Пресняков А.Е. - Лекции по русской истории. Киевская Русь [2007, Историческая книга. Аудиокнига]

    Формат: аудиокнига, MP3, 192kbps
    Год выпуска: 2007
    Автор: Пресняков Александр Евгеньевич
    Исполнитель: Илья Бобылёв
    Жанр: Историческая книга.
    Издательство: © ООО «Бизнессофт» (разработчик); издаётся под товарным знаком ИДДК Общее время звучания: 20:09:00
    Описание: Курс лекций выдающегося русского историка, профессора Александра Евгеньевича Преснякова (1870-1929), является важным достижением русской исторической науки XX в. Являясь не только исследователем, но и выдающимся педагогом, историк с необыкновенной точностью и доходчивостью изложил один из сложнейших периодов в русской истории, который ...


    06
    янв
    2009

    Владимир Кузьмин 1982 - 2007 ,оф. дискография (32 альбома) [1982-2007, рок]

    Формат: APE, (image + .cue), lossless
    Год выпуска: 1982-2007
    Страна: Россия
    Жанр: рок
    Продолжительность: много
    Описание:
    Описание: Альбомы,сборники и концертные записи,вошедшие в официальную дискографию. Расположены по году записи (альбома-пластинки), в скобках - год выхода на сд. 1982 - Динамик'82 (2СD) (1994) CD 1 (47:17): 1. Делай физзарядку (39-й круг) 2. По-прежнему вдвоем (Капюшон) 3. Музыканты (В воскресный день) 4. Тоска 5. Телефон 6. Почему мы пьем вино? 7. Кто не успел, тот опоздал? 8. На пляже (Плещет волна) CD 2 (46:28): 1. Проявленные лица 2. Мама, я попал в беду 3. Мама купила м ...


    01
    ноя
    2012

    Владимир (Скляренко Семён) [2012, Исторический роман, аудиокнига, MP3, 96kbps, Мичков Василий]

    Формат: аудиокнига, MP3, 96kbps
    Автор: Скляренко Семён
    Год выпуска: 2012
    Жанр: Исторический роман
    Издательство: Нигде не купишь
    Исполнитель: Мичков Василий
    Продолжительность: 25:27:51
    Описание: Книга Семена Скляренко - о нашей истории, о прошлом нашего народа. Автор пишет о Киевской Руси - колыбели трех славянских народов - русского, украинского и белорусского. В романе последовательно и широко отображается решительная политика князя Владимира, отстаивавшего твердую государственную власть и единство Руси.
    Доп. информация: Прочитано по изданию: М. Дружба народов, 1992 Перевод с украинского: Ал ...


    08
    сен
    2007

    Владимир Высоцкий (полное собрание песен)

    Страна: Россия
    Жанр: Барды
    Формат: MP3
    Битрейт: 160 кБ/с
    Доп. информация: В папке содержатся 32 тома: Том 1 Татуировка, Том 2 Формулировка, Том 3 Но я не жалею, Том 4 Поговори хоть ты со мной, Том 5 Путешествие в прошлое, Том 6 Скажи еще спасибо, что живой, Том 7 Иван да Марья, Том 8 Бегство мистера Мак Кинли, Том 9 Свой остров, Том 10 Затяжной прыжок, Том 11 Концерт в дк МИР, Том 12 Концерт в центральном театре кукол, Том 13 Концерт в дк ВАМИ, Том 14 Концерт в дк Коммуна Часть 1, Том 15 Концерт в дк Коммуна Часть 2, Том 16 Тихорецкая, Том 17 Я родом из детства, Том 18 Песня о воле, Том 19 Куп ...


    25
    авг
    2007

    Князь Владимир (Юрий Кулаков) [2004, мультфильм, драма, история, DVD5]

    Перевод: Не требуется, cубтитры: отсутствуют
    Формат: DVD5, DVD Video, MPEG2, AC3
    Страна: Россия
    Режиссер: Юрий Кулаков
    Жанр: мультфильм, драма, история
    Продолжительность: 01:16:24
    Год выпуска: 2004
    В ролях: Сергей Безруков, Александр Баринов, Томас Шлеккер, Юрий Беркун, Лев Дуров, Алексей Колган, Дмитрий Назаров, Владимир Гостюхин, Коля Расторгуев, Василий Дахненко
    Описание: Невиданная и загадочная древняя Русь, утопающая в красках первозданной природы и старинных праздников. Деревянные города и необъятные просторы, жестокие сражения и щедрые пиры, шумные ярмарки и грандиозные охоты. На фо ...



    Источник: https://MyKlad.org/2/6/4/vladimir-presnyakov-diskografiya-1993-2011-pop-flac.html

    Владимир Пресняков-младший. Временно доступен


    Опубликовано: 13.02.2018 | Автор: Клементина

    Рейтинг статьи: 5

    Похожее:


    Всего 8 комментариев.


    15.02.2018 Парфен:
    Владимир Пресняков мл. - Дискография скачать торрент. Альбом  Примерно до середины 90-х годов Пресняков-младший стабильно входил в десятку самых популярных российских исполнителей В 1996 году получает премию «Золотой.

    18.02.2018 ulquarsubtlo1991:
    Самые активные релизы за неделю.:: Детали раздачи. Владимир Пресняков - Дискография (1989-2009, Pop, MP3).  Дебютный альбом «Папа, ты сам был таким», выпущенный на виниле, окончательно сформировал имидж певца.

    21.02.2018 kelntrasdecktua:
    скачать Владимир Пресняков mp3 бесплатно и без регистрации. музыка mp3 - архив музыки и видео. Музыка представлена в формате mp3. Фотографии, дискография, музыка Владимир Пресняков.

    18.03.2018 prescietyna:
    Владимир Пресняков. русская эстрада. Слушать.  Слушая тишину. Владимир Пресняков. 2017.

    27.03.2018 Олимпий:
    You are here: Home» Дискография. Песни, не вошедшие в альбомы. «Быть частью твоего». Леонид Агутин, Владимир Пресняков, Наталья Подольская, Анжелика Варум.

    21.02.2018 Наталья:
    Владимир Пресняков - Дискография Формат: MP3, tracks, 192-320kbps Год выпуска: 1989-2009 Страна: Россия Жанр: Pop Продолжительность: 12:02:11 Описание.